ella endlich nackt sorted by
relevance

Admin12.08.2021

Watch ella endlich nude

If you still feel the need to contact us, our preferred method is by email but you can phone us if you desire and we will gladly give you the original url s of where the content is hosted so you can get it removed there.
Admin19.08.2021

Wenn Kükenmuschis jucken

Lisa schob ihren Dildo in die klein Scheide und fickte sich.
7109
Admin22.08.2021

Watch ella endlich nude

wav" WAVE TRACK 13 AUDIO TITLE "Unterwegs" PERFORMER "Ella Endlich" INDEX 01 00:00:00 TRACK 14 AUDIO TITLE "Mein letztes Liebeslied" PERFORMER "Ella Endlich" INDEX 00 03:19:45 FILE "14 Mein letztes Liebeslied.
32010
Admin21.09.2021

Uschi Glas Nackt Nacktbilder Videos SextapeSexiezPix Web Porn

wav" WAVE TRACK 10 AUDIO TITLE "Einen wie Dich" PERFORMER "Ella Endlich" INDEX 01 00:00:00 FILE "11 Am Tag danach.
2001
Admin10.07.2021

Uschi Glas Nackt Nacktbilder Videos SextapeSexiezPix Web Porn

29 194965 210068 14 46:40.
7307
Admin14.08.2021

Ella Nova Porno

Fasziniert schaute ich ihr zu und wichste meinn Pimmel.
2202
Admin09.08.2021

Wenn Kükenmuschis jucken

wav" WAVE TRACK 12 AUDIO TITLE "Wir woll'n nicht schlafen geh'n" PERFORMER "Ella Endlich" ISRC DEA621400259 INDEX 01 00:00:00 FILE "13 Nichts haelt einen rollenden Stein.
4909
Admin28.07.2021

Ella Nova Porno

So brauchte ich nicht stundenlang zu betteln, wenn mir der Pimmel juckte.
1108
Admin01.08.2021

Watch ella endlich nude

0 beta 3 from 29.
7309
Admin28.08.2021

Ella Endlich: Heißer Schnappschuss aufgetaucht!

Am Tag danach 4:13 12.
2807
Admin11.08.2021

Sexy Schlagerstars zeigen viel Haut

Sie gab zu, noch nie so einn tollen Abgang bekommen zu haben.
Admin18.07.2021

Wie Alt Ist Ella Endlich

3 X Track quality 100.
8509